Info




Budget: 58000000$

Incassi: 71664962$

Stato: Released

Tagline: Ancora armati, ancora pericolosi, ancora sulla cresta

Cast:




Frank Moses è un ex agente della CIA, che ora vive una vita tranquilla e solitaria. La sua routine viene interrotta solamente dal rapporto telefonico con una donna, Sarah, impiegata presso l’ufficio pensioni e contattata da Frank pretestuosamente ogni giorno. L’interesse tra i due è reciproco e da queste telefonate nasce un’affettuosa amicizia. Una notte, un commando di assassini dotati di equipaggiamento avanzato si presenta alla sua porta con l’intento di ucciderlo. Sopravvissuto all’imboscata, e resosi conto di essere stato sorvegliato e che probabilmente anche la donna che ama è in pericolo, Moses raggiunge la donna e la porta con sé contro la sua volontà. Sarah, infine sedotta dall’avventura che si prospetta accanto a Frank……………

 

Trailer


Upload on Youtube

Info File

General
Complete name : Red (2010)\Red (2010).avi
Format : AVI
Format/Info : Audio Video Interleave
File size : 1.66 GiB
Duration : 1h 46mn
Overall bit rate : 2 230 Kbps
Writing application : VirtualDubMod 1.5.4.1 (build 2178/release)
Writing library : VirtualDubMod build 2178/release

Video
ID : 0
Format : MPEG-4 Visual
Format profile : Advanced [email protected]
Format settings, BVOP : Yes
Format settings, QPel : No
Format settings, GMC : No warppoints
Format settings, Matrix : Custom
Codec ID : XVID
Codec ID/Hint : XviD
Duration : 1h 46mn
Bit rate : 1 325 Kbps
Width : 720 pixels
Height : 304 pixels
Display aspect ratio : 2.35:1
Frame rate : 25.000 fps
Color space : YUV
Chroma subsampling : 4:2:0
Bit depth : 8 bits
Scan type : Progressive
Bits/(Pixel*Frame) : 0.242
Stream size : 1 010 MiB (59%)
Writing library : XviD 1.2.1 (UTC 2008-12-04)

Audio #1
ID : 1
Format : AC-3
Format/Info : Audio Coding 3
Mode extension : CM (complete main)
Codec ID : 2000
Duration : 1h 46mn
Bit rate mode : Constant
Bit rate : 448 Kbps
Channel(s) : 6 channels
Channel positions : Front: L C R, Side: L R, LFE
Sampling rate : 48.0 KHz
Bit depth : 16 bits
Stream size : 342 MiB (20%)
Alignment : Aligned on interleaves
Interleave, duration : 96 ms (2.40 video frames)
Interleave, preload duration : 96 ms
Language : Italian

Audio #2
ID : 2
Format : AC-3
Format/Info : Audio Coding 3
Mode extension : CM (complete main)
Codec ID : 2000
Duration : 1h 46mn
Bit rate mode : Constant
Bit rate : 448 Kbps
Channel(s) : 6 channels
Channel positions : Front: L C R, Side: L R, LFE
Sampling rate : 48.0 KHz
Bit depth : 16 bits
Video delay : 74ms
Stream size : 342 MiB (20%)
Alignment : Split accross interleaves
Interleave, duration : 96 ms (2.40 video frames)
Interleave, preload duration : 96 ms
Language : English

Trackers

http://tracker.istole.it:80/
http://tracker.tntvillage.scambioetico.org:2710/scrape
http://open.demonii.com:1337/scrape
http://tracker.coppersurfer.tk:6969/scrape
http://tracker.openbittorrent.com/scrape
http://tracker.publicbt.com:80/

Torrent correlati

Torrent Name Dimm. Creato Seed Leech
1.18 Gb 2 anni fa 0 0
157.13 Mb 1 anno fa 1 0
700.9 Mb 2 anni fa 0 0
1.11 Gb 1 anno fa 0 0
1.37 Gb 2 anni fa 9 1