Info

Renaissance Man


6.1
IMDB: 6.1/10 14,286 votes

Durata: 128 min

Released:

Anno: 03 Jun 1994

Direttore:

Premi: N/A

Budget: 40000000$

Incassi: 24332324$

Stato: Released

Paese: USA

Cast:




Bill Rago è Un Dirigente Pubblicitario Divorziato e Fresco di Licenziamento che Accetta, Con Poco Entusiasmo,
Un Impiego Temporaneo Come Insegnante Presso la Base di Addestramento dell’Esercito degli Stati Uniti.
La Sua Classe è Semi-Analfabeta, e Bill ha Solo Sei Settimane Per Insegnare le Basi della Comprensione e la Lingua Inglese ai Suoi Svogliati Allievi.
Nonostante la Sfiducia del Sergente Cass e la Perdita di un Brillante Tirocinante Rivelatosi Ex-Spacciatore di Crack in Fuga,
Il Professore Saprà, Attraverso l’Insegnamento dell’Amleto di Shakespeare, Conquistare il Cuore e la Stima della Classe,
Ed Accetterà il Prolungamento del Contratto.

Trailer


Upload on Youtube

Info File

General
Complete name : Mezzo.Professore.Tra.I.Marines.1994.iTALiAN.DVDRip.XviD.[DpHs]
Format : AVI
Format/Info : Audio Video Interleave
File size : 560 MiB
Duration : 1h 42mn
Overall bit rate : 761 Kbps
Writing library : Boilsoft Joiner build 2411/release

Video
ID : 0
Format : MPEG-4 Visual
Format settings, BVOP : Yes
Format settings, QPel : No
Format settings, GMC : No warppoints
Format settings, Matrix : Default (H.263)
Codec ID : DX50
Codec ID/Hint : DivX 5
Duration : 1h 42mn
Bit rate : 559 Kbps
Width : 640 pixels
Height : 432 pixels
Display aspect ratio : 3:2
Frame rate : 25.000 fps
Color space : YUV
Chroma subsampling : 4:2:0
Bit depth : 8 bits
Scan type : Progressive
Compression mode : Lossy
Bits/(Pixel*Frame) : 0.081
Stream size : 411 MiB (73%)
Writing library : DivX 5.2.1 (DrDivX 106) (UTC 2004-09-08)

Audio
ID : 1
Format : MPEG Audio
Format version : Version 1
Format profile : Layer 3
Codec ID : 55
Codec ID/Hint : MP3
Duration : 1h 42mn
Bit rate mode : Constant
Bit rate : 192 Kbps
Channel(s) : 2 channels
Sampling rate : 44.1 KHz
Compression mode : Lossy
Delay relative to video : 5ms
Stream size : 141 MiB (25%)
Alignment : Split accross interleaves
Interleave, duration : 40 ms (1.00 video frame)
Interleave, preload duration : 500 ms

Trackers

http://tracker.istole.it:80/
http://tracker.publicbt.com:80/
http://tracker.tntvillage.scambioetico.org:2710/scrape
http://open.demonii.com:1337/scrape
http://tracker.coppersurfer.tk:6969/scrape
http://tracker.openbittorrent.com/scrape