Info

A Walk Among the Tombstones


6.5
IMDB: 6.5/10 92,230 votes

Durata: 114 min

Released:

Anno: 19 Sep 2014

Direttore:

Premi: N/A

Budget: 28000000$

Incassi: 53181600$

Stato: Released

Paese: USA

Tagline: Le persone hanno paura del male

Cast:




L’investigatore privato Matt Scuder, ex poliziotto e alcolista, si trova a dover risolvere un omicidio. Un trafficante di droga lo incarica di trovare gli assassini della moglie uccisa barbaramente. I quartieri malfamati di New York compongono lo sfondo del film.

Matt Scuder è un ex poliziotto, divenuto investigatore privato senza licenza. Ha lasciato la polizia a causa di uno scontro a fuoco, in cui morì una bambina. La sua esistenza è divenuta tormento interiore. C’è l’alcol e la sua lotta per uscire dall’alcolismo. Ricorda, sotto certi aspetti, il Philip Marlowe di Raymond Chandler e di alcuni film del passato.

Le riprese del film hanno avuto luogo a New York: a Manhattan presso la New York Public Library sulla Fifth Avenue e con il Washington Heights; nel Queens con Malba e il College Point; a Brooklyn presso il Clinton Hill, Sunset Park e al Cimitero di Green-Wood, il cimitero monumentale vicino a Brooklyn.

Trailer


Upload on Youtube

Info File

Video
ID : 1
Format : HEVC
Format/Info : High Efficiency Video Coding
Codec ID : V_MPEGH/ISO/HEVC
Duration : 1h 53mn
Bit rate : 2 577 Kbps
Width : 1 920 pixels
Height : 1 080 pixels
Display aspect ratio : 16:9
Frame rate mode : Constant
Frame rate : 24.000 fps
Bits/(Pixel*Frame) : 0.052
Stream size : 2.05 GiB (65%)
Default : Yes
Forced : No
DURATION : 01:53:38.500000000

Audio #1
ID : 3
Format : AC-3
Format/Info : Audio Coding 3
Mode extension : CM (complete main)
Format settings, Endianness : Big
Codec ID : A_AC3
Duration : 1h 53mn
Bit rate mode : Constant
Bit rate : 640 Kbps
Channel(s) : 6 channels
Channel positions : Front: L C R, Side: L R, LFE
Sampling rate : 48.0 KHz
Frame rate : 31.250 fps (1536 spf)
Compression mode : Lossy
Stream size : 520 MiB (16%)
Language : Italian
Default : Yes
Forced : No
DURATION : 01:53:38.336000000

Audio #2
ID : 4
Format : AC-3
Format/Info : Audio Coding 3
Mode extension : CM (complete main)
Format settings, Endianness : Big
Codec ID : A_AC3
Duration : 1h 53mn
Bit rate mode : Constant
Bit rate : 640 Kbps
Channel(s) : 6 channels
Channel positions : Front: L C R, Side: L R, LFE
Sampling rate : 48.0 KHz
Frame rate : 31.250 fps (1536 spf)
Compression mode : Lossy
Stream size : 520 MiB (16%)
Language : English
Default : Yes
Forced : No
DURATION : 01:53:38.240000000

Trackers

http://tracker.istole.it:80/
http://tracker.publicbt.com:80/
http://open.demonii.com:1337/scrape
http://tracker.tntvillage.scambioetico.org:2710/scrape
http://tracker.coppersurfer.tk:6969/scrape
http://tracker.openbittorrent.com/scrape