Info

Wrath of the Titans


5.8
IMDB: 5.8/10 155,073 votes

Durata: 99 min

Released:

Anno: 30 Mar 2012

Direttore:

Premi: 2 wins & 2 nominations.

Budget: 150000000$

Incassi: 301000000$

Stato: Released

Paese: USA, Spain

Tagline: La furia vi travolgerà

Cast:




Dieci anni dopo la sconfitta del mostruoso Kraken, Perseo tenta di vivere una vita più tranquilla in un villaggio di pescatori, crescendo da solo il figlio di dieci anni, Elio. Ma il caos e la distruzione totale incombono, la situazione per gli dei dell’Olimpo è peggiorata, poiché gli uomini hanno smesso completamente di pregare e di credere in loro. Senza la devozione dell’uomo, gli dei stanno perdendo i loro poteri, il creato si decompone ed inoltre essi non sono più in grado di contenere i Titani, guidati da Crono, il padre dei fratelli Zeus, Ade e Poseidone. Il triumvirato aveva rovesciato il loro potente padre molto tempo fa, imprigionandolo nel mondo sotterraneo Tartaro.

Trailer


Upload on Youtube

Info File

Video
ID : 0
Format : MPEG-4 Visual
Format profile : Advanced [email protected]
Format settings, BVOP : Yes
Format settings, QPel : No
Format settings, GMC : No warppoints
Format settings, Matrix : Default (H.263)
Codec ID : XVID
Codec ID/Hint : XviD
Duration : 1h 35mn
Bit rate : 1 717 Kbps
Width : 720 pixels
Height : 386 pixels
Display aspect ratio : 1.865
Frame rate : 25.000 fps
Color space : YUV
Chroma subsampling : 4:2:0
Bit depth : 8 bits
Scan type : Progressive
Bits/(Pixel*Frame) : 0.247
Stream size : 1.14 GiB (65%)
Writing library : XviD 1.1.2 (UTC 2006-11-01)

Audio #1
ID : 1
Format : AC-3
Format/Info : Audio Coding 3
Mode extension : CM (complete main)
Codec ID : 2000
Duration : 1h 35mn
Bit rate mode : Constant
Bit rate : 448 Kbps
Channel(s) : 6 channels
Channel positions : Front: L C R, Side: L R, LFE
Sampling rate : 48.0 KHz
Bit depth : 16 bits
Stream size : 306 MiB (17%)
Alignment : Split accross interleaves
Interleave, duration : 40 ms (1.00 video frame)
Interleave, preload duration : 500 ms

Trackers

http://tracker.istole.it:80/
http://tracker.publicbt.com:80/
http://tracker.tntvillage.scambioetico.org:2710/scrape
http://open.demonii.com:1337/scrape
http://tracker.coppersurfer.tk:6969/scrape
http://tracker.openbittorrent.com/scrape